Verfolgt Und Vernascht (2011)

Ответить на тему
Статистика раздачи
Размер:  801 MB   |    Зарегистрирован:  2 месяца 14 дней   |    Скачан:  26 раз
   
 
Автор Сообщение

Sex ®

Стаж: 3 года 11 месяцев

Сообщений: 63501

Пост 09-Янв-2017 14:18

[Цитировать]

Verfolgt Und Vernascht (2011)[DVDRIP][.AVI]
Screen:





COVER:

Format : AVI
Format/Info : Audio Video Interleave
File size : 801 MiB
Duration : 1h 34mn
Overall bit rate mode : Variable
Overall bit rate : 1 185 Kbps
Video
ID : 0
Format : MPEG-4 Visual
Format profile : Advanced Simple@L5
Format settings, BVOP : 2
Format settings, QPel : No
Format settings, GMC : No warppoints
Format settings, Matrix : Default (H.263)
Codec ID : XVID
Codec ID/Hint : XviD
Duration : 1h 34mn
Bit rate : 1 037 Kbps
Width : 576 pixels
Height : 432 pixels
Display aspect ratio : 4:3
Frame rate : 25.000 fps
Color space : YUV
Chroma subsampling : 4:2:0
Bit depth : 8 bits
Scan type : Progressive
Compression mode : Lossy
Bits/(Pixel*Frame) : 0.167
Stream size : 701 MiB (87%)
Audio
ID : 1
Format : MPEG Audio
Format version : Version 1
Format profile : Layer 3
Mode : Joint stereo
Mode extension : MS Stereo
Codec ID : 55
Codec ID/Hint : MP3
Duration : 1h 34mn
Bit rate mode : Variable
Bit rate : 136 Kbps
Nominal bit rate : 128 Kbps
Channel(s) : 2 channels
Sampling rate : 48.0 KHz
Compression mode : Lossy
Stream size : 91.6 MiB (11%)
Alignment : Aligned on interleaves
Interleave, duration : 24 ms (0.60 video frame)
Interleave, preload duration : 385 ms
Writing library : LAME3.90
File Size: 800 MB | Resolution: 576x432 | Duration: 01:34:28 | Format: avi
(l.torrentops.ru).t60754.torrent 
Торрент: Зарегистрирован   [ 2017-01-09 14:18 ]

Скачать

9 KB

Статус: проверено
Скачан: 26 раз
Размер: 801 MB
 

_________________
[Профиль] [ЛС]
Показать сообщения:    
Ответить на тему

Текущее время: Сегодня 21:14

Часовой пояс: GMT + 1



Вы не можете начинать темы
Вы не можете отвечать на сообщения
Вы не можете редактировать свои сообщения
Вы не можете удалять свои сообщения
Вы не можете голосовать в опросах
Вы не можете прикреплять файлы к сообщениям
Вы можете скачивать файлы